Friday , 22 June 2018
Breaking News

.....::::::CLICK HERE TO NEW MOVIE SITE::::::....

Bachchan 2014 Bangla Movie 720p DVDRip x264 MP4

Bachchan 2014 Bangla Movie 720p DVDRip x264 MP4

General
Complete name : Bachchan 2014 Bangla Movie 720p DVDRip x264 MP4.mp4
Format : MPEG-4
Format profile : Base Media
Codec ID : isom (isom/iso2/avc1/mp41)
File size : 13.3 GiB
Duration : 2 h 3 min
Overall bit rate : 15.4 Mb/s
Video
ID : 1
Format : AVC
Format/Info : Advanced Video Codec
Format profile : [email protected]
Format settings : CABAC / 3 Ref Frames
Format settings, CABAC : Yes
Format settings, RefFrames : 3 frames
Format settings, GOP : M=1, N=50
Codec ID : avc1
Codec ID/Info : Advanced Video Coding
Duration : 2 h 3 min
Bit rate : 15.0 Mb/s
Width : 1 920 pixels
Height : 1 080 pixels
Display aspect ratio : 2.35:1
Original display aspect ratio : 2.35:1
Frame rate mode : Constant
Frame rate : 30.000 FPS
Color space : YUV
Chroma subsampling : 4:2:0
Bit depth : 8 bits
Scan type : Progressive
Bits/(Pixel*Frame) : 0.241
Stream size : 13.0 GiB (98%)
Audio
ID : 2
Format : AAC
Format/Info : Advanced Audio Codec
Format profile : LC
Codec ID : mp4a-40-2
Duration : 2 h 3 min
Bit rate mode : Constant
Bit rate : 320 kb/s
Channel(s) : 2 channels
Channel(s)_Original : 6 channels
Channel positions : Front: L C R, Side: L R, LFE
Sampling rate : 48.0 kHz
Frame rate : 46.875 FPS (1024 SPF)
Compression mode : Lossy
Stream size : 283 MiB (2%)
Language : English
Default : Yes
Alternate group : 1


Openload Link – Clicknupload Link – Indishare Link – BDupload Link

Leave a Reply

Your email address will not be published. Required fields are marked *

*

BIGTheme.net • Free Website Templates - Downlaod Full Themes