Friday , 22 June 2018
Breaking News

.....::::::CLICK HERE TO NEW MOVIE SITE::::::....

Badmaash 2018 Hindi Dubbed Movie HDRip x264 MP4

Badmaash 2018 Hindi Dubbed Movie HDRip x264 MP4

General
Complete name : Badmaash 2018 Hindi Dubbed Movie HDRip x264 MP4.MP4
Format : MPEG-4
Format profile : Base Media / Version 2
Codec ID : mp42 (isom/mp42)
File size : 695 MiB
Duration : 1 h 38 min
Overall bit rate mode : Variable
Overall bit rate : 983 kb/s
Encoded date : UTC 2018-06-11 20:59:54
Tagged date : UTC 2018-06-11 20:59:54
gsst : 0
gstd : 5932512
Video
ID : 1
Format : AVC
Format/Info : Advanced Video Codec
Format profile : [email protected]
Format settings : CABAC / 3 Ref Frames
Format settings, CABAC : Yes
Format settings, RefFrames : 3 frames
Codec ID : avc1
Codec ID/Info : Advanced Video Coding
Duration : 1 h 38 min
Bit rate : 854 kb/s
Width : 1 280 pixels
Height : 720 pixels
Display aspect ratio : 16:9
Frame rate mode : Constant
Frame rate : 25.000 FPS
Color space : YUV
Chroma subsampling : 4:2:0
Bit depth : 8 bits
Scan type : Progressive
Bits/(Pixel*Frame) : 0.037
Stream size : 604 MiB (87%)
Encoded date : UTC 2018-06-11 20:59:54
Tagged date : UTC 2018-06-11 20:59:54
Color range : Limited
Color primaries : BT.709
Transfer characteristics : BT.709
Matrix coefficients : BT.709
Audio
ID : 2
Format : AAC
Format/Info : Advanced Audio Codec
Format profile : LC
Codec ID : mp4a-40-2
Duration : 1 h 38 min
Bit rate mode : Variable
Bit rate : 126 kb/s
Channel(s) : 2 channels
Channel positions : Front: L R
Sampling rate : 44.1 kHz
Frame rate : 43.066 FPS (1024 SPF)
Compression mode : Lossy
Stream size : 88.8 MiB (13%)
Title : ISO Media file produced by Google Inc. Created on: 06/11/2018.
Language : English
Encoded date : UTC 2018-06-11 20:59:54
Tagged date : UTC 2018-06-11 20:59:54


Openload Link – Clicknupload Link – Indishare Link – BDupload Link

Leave a Reply

Your email address will not be published. Required fields are marked *

*

BIGTheme.net • Free Website Templates - Downlaod Full Themes