Sunday , 22 April 2018
Breaking News

.....::::::CLICK HERE TO NEW ADULT SITE::::::....

English Vs English 2016 720p DVDRip x264 MP4

[img]https://i.imgur.com/x9BieYw.jpg[/img]

[center][size=’large’]English Vs English 2016 720p DVDRip x264 MP4[/size][/center]

[img]https://i.imgur.com/7bCfMsr.png[/img]

[center] General
Complete name : English Vs English 2016 720p DVDRip x264 MP4
Format : Matroska
Format version : Version 4 / Version 2
File size : 1.64 GiB
Duration : 1 h 56 min
Overall bit rate : 2 025 kb/s
Movie name : English Vs English (2016) Bengali Untouched 720p Web-DL x264 AAC {Err_Or}
Encoded date : UTC 2018-04-09 08:47:33
Writing application : mkvmerge v19.0.0 (‘Brave Captain’) 32-bit
Writing library : libebml v1.3.5 + libmatroska v1.4.8

Video
ID : 2
Format : AVC
Format/Info : Advanced Video Codec
Format profile : [email protected]
Format settings : 3 Ref Frames
Format settings, CABAC : No
Format settings, RefFrames : 3 frames
Codec ID : V_MPEG4/ISO/AVC
Duration : 1 h 56 min
Bit rate : 1 900 kb/s
Width : 1 280 pixels
Height : 720 pixels
Display aspect ratio : 16:9
Frame rate mode : Constant
Frame rate : 24.000 FPS
Color space : YUV
Chroma subsampling : 4:2:0
Bit depth : 8 bits
Scan type : Progressive
Bits/(Pixel*Frame) : 0.086
Stream size : 1.54 GiB (94%)
Title : English Vs English 2016 720p DVDRip x264 MP4
=
Audio
ID : 1
Format : AAC
Format/Info : Advanced Audio Codec
Format profile : LC
Codec ID : A_AAC-2
Duration : 1 h 56 min
Bit rate : 128 kb/s
Channel(s) : 2 channels
Channel positions : Front: L R
Sampling rate : 44.1 kHz
Frame rate : 43.066 FPS (1024 SPF)
Compression mode : Lossy
Delay relative to video : -46 ms
Stream size : 106 MiB (6%)
Title : English Vs English (2016) Bengali Untouched 720p Web-DL x264 AAC {Err_Or}
Language : Bengali
Default : Yes
Forced : No
[/center]

[img]https://i.imgur.com/oV9EgVr.png[/img]

[img]https://i.imgur.com/Im5kpuS.jpg[/img]

[img]https://i.imgur.com/qAupQnE.png[/img]

[img]https://i.imgur.com/ncM6r7m.png[/img] [center][size=200] [url=https://openload.co/f/PUeVhR5uV80/English_Vs_English_2016_Bengali_Untouched_1080p_DVDRip_x264_AAC.mp4]Openload Link[/url] [url=https://clicknupload.org/h99b9llzspxv]Clicknupload Link[/url] [url=http://www.indishare.me/ht9v5eobf7p3]Indishare Link[/url] [url=https://bdupload.info/h303uee14v3j]BDupload Link[/url] [/size][/center]

Leave a Reply

Your email address will not be published. Required fields are marked *

*

BIGTheme.net • Free Website Templates - Downlaod Full Themes