Tuesday , 19 June 2018
Breaking News

.....::::::CLICK HERE TO NEW MOVIE SITE::::::....

Jigarbaaz (Vismaya) 2018 Hindi Dubbed Movie DVDRip x264 MP4

Jigarbaaz (Vismaya) 2018 Hindi Dubbed Movie DVDRip x264 MP4

General
Complete name : Jigarbaaz (Vismaya) 2018 Hindi Dubbed Movie DVDRip x264 MP4.mp4
Format : MPEG-4
Format profile : Base Media
Codec ID : isom (isom/iso2/avc1/mp41)
File size : 993 MiB
Duration : 1 h 53 min
Overall bit rate : 1 225 kb/s
Writing application : Lavf56.40.101
Video
ID : 1
Format : AVC
Format/Info : Advanced Video Codec
Format profile : [email protected]
Format settings : CABAC / 3 Ref Frames
Format settings, CABAC : Yes
Format settings, RefFrames : 3 frames
Codec ID : avc1
Codec ID/Info : Advanced Video Coding
Duration : 1 h 53 min
Duration_FirstFrame : -40 ms
Bit rate : 1 093 kb/s
Width : 1 920 pixels
Height : 1 080 pixels
Display aspect ratio : 16:9
Frame rate mode : Variable
Frame rate : 25.000 FPS
Minimum frame rate : 25.000 FPS
Maximum frame rate : 25.014 FPS
Color space : YUV
Chroma subsampling : 4:2:0
Bit depth : 8 bits
Scan type : Progressive
Bits/(Pixel*Frame) : 0.021
Stream size : 886 MiB (89%)
Color range : Limited
Color primaries : BT.709
Transfer characteristics : BT.709
Matrix coefficients : BT.709
Audio
ID : 2
Format : AAC
Format/Info : Advanced Audio Codec
Format profile : LC
Codec ID : mp4a-40-2
Duration : 1 h 53 min
Bit rate mode : Constant
Bit rate : 126 kb/s
Channel(s) : 2 channels
Channel positions : Front: L R
Sampling rate : 44.1 kHz
Frame rate : 43.066 FPS (1024 SPF)
Compression mode : Lossy
Stream size : 102 MiB (10%)
Default : Yes
Alternate group : 1


Openload Link – Clicknupload Link – Indishare Link – BDupload Link

Leave a Reply

Your email address will not be published. Required fields are marked *

*

BIGTheme.net • Free Website Templates - Downlaod Full Themes