Friday , 22 June 2018
Breaking News

.....::::::CLICK HERE TO NEW MOVIE SITE::::::....

One 2017 Bangla Movie 500MB DVDRip x264 MP4

One 2017 Bangla Movie 720p DVDRip x264 MP4

General
Complete name : One 2017 Bangla Movie 720p DVDRip x264 MP4.mp4
Format : MPEG-4
Format profile : Base Media
Codec ID : isom (isom/iso2/avc1/mp41)
File size : 960 MiB
Duration : 2 h 27 min
Overall bit rate mode : Variable
Overall bit rate : 911 kb/s
Video
ID : 1
Format : AVC
Format/Info : Advanced Video Codec
Format profile : [email protected]
Format settings : CABAC / 2 Ref Frames
Format settings, CABAC : Yes
Format settings, RefFrames : 2 frames
Codec ID : avc1
Codec ID/Info : Advanced Video Coding
Duration : 2 h 27 min
Duration_FirstFrame : -42 ms
Bit rate : 750 kb/s
Width : 720 pixels
Height : 304 pixels
Display aspect ratio : 2.35:1
Frame rate mode : Variable
Frame rate : 23.976 FPS
Minimum frame rate : 11.988 FPS
Maximum frame rate : 23.976 FPS
Color space : YUV
Chroma subsampling : 4:2:0
Bit depth : 8 bits
Scan type : Progressive
Bits/(Pixel*Frame) : 0.143
Stream size : 780 MiB (81%)
Audio
ID : 2
Format : AAC
Format/Info : Advanced Audio Codec
Format profile : LC
Codec ID : mp4a-40-2
Duration : 2 h 27 min
Bit rate mode : Variable
Bit rate : 165 kb/s
Channel(s) : 2 channels
Channel positions : Front: L R
Sampling rate : 48.0 kHz
Frame rate : 46.875 FPS (1024 SPF)
Compression mode : Lossy
Stream size : 174 MiB (18%)
Encoded date : UTC 1970-01-01 00:00:00
Tagged date : UTC 1970-01-01 00:00:00


Openload Link – Clicknupload Link – Indishare Link – BDupload Link

Leave a Reply

Your email address will not be published. Required fields are marked *

*

BIGTheme.net • Free Website Templates - Downlaod Full Themes